周慧敏出道25周年演唱會 Vivian Chow Deep V 25th Anniversary Concert 2011 BluRay 1080i AVC DTS-HD MA5.1-wezjh@OurBits

[DIY簡繁字幕] ISO封裝[全場完整版,補全了對話、日語翻譯字幕]

為慶祝入行25周年,周慧敏於2011年3月推出25周年紀念EP《盆栽》,並於3月19及20日在紅館舉行兩場《Deep V 25周年演唱會》,是她自2006年《Back For Love演唱會》再次回歸樂壇。演唱會名為「Deep V」,V代表其英文名字Vivian,Deep則意指深交和深情。Vivian在個唱中除了會演唱「紅河村」、「天荒愛未老」、「如果你知我苦衷」等多首金曲之外,更會跟粉絲作深情的表白,還請來出道以來見證她成長的歌手好友加盟,演唱會開場先由鄭丹瑞發聲,接着熒幕播出劉青雲的影片,Vivian與蘇永康和古巨基分別合唱情歌「流言」和「愛得太遲」,還有李克勤、鄭秀文和張敬軒擔當表演嘉賓。
最經典是請來Vivian的偶像、八十年代走紅的日本歌手柏原芳惠擔任特別嘉賓,1985年Vivian在新秀歌唱比賽憑柏原芳惠一曲「最愛」(日文版)而出道,25年後的今日與Vivian在紅館同台演繹「最愛」。
同時得到數位頂級嘉賓助陣(蘇永康/古巨基/李克勤/鄭秀文/張敬軒/劉青雲/鄭瑞), 合唱多首經典金曲以答謝樂迷相伴25載的情誼且慶祝踏入樂壇25年紀念。

目錄
01. 紅河村OPENING
02. 天荒愛未老
03. 孤單的心痛
04. 感情的分禮
05. 流言 (蘇永康合唱)
06. DANCE MEDLEY 1: 壞女孩 / 跳舞街 / 對你愛不完 / 自作心情
07. 此情只待追憶 (張敬軒合唱)
08. 秋櫻
09. 再見我的愛人
10. 紅葉落索的時候
11. 愛得太遲 (古巨基合唱)
12. DANCE MEDLEY 2: 假裝 / 自動自覺 / 詛咒 / 借歪
13. C’EST LA VIE
14. 情迷
15. 不要驚動愛情 (鄭秀文合唱)
16. CLASSIC LOVE MEDLEY: 歲月的童話 / 愛你多過愛他 / 鋼線之舞
17. 盆栽
18. 台下女主角
19. 美少女戰士
20. 最愛 (柏原芳惠合唱)
21. 如果你知我苦衷
22. 留戀
23. 最愛
24. 為你
25. 天荒愛未老
BONUS TRACK:
26. 萬千寵愛在一身 (李克勤合唱)
27. 流言 (張敬軒合唱)
28. 最愛 (柏原芳惠主唱/周慧敏伴奏)
29. 儘管是春天 (柏原芳惠合唱)

DISC INFO:

Disc Title:     Vivian Chow Deep V 25th Anniversary Concert 2011 BluRay 1080i AVC DTS-HD MA5.1-wezjh@OurBits
Disc Size:      48,608,835,584 bytes
Protection:     AACS
BD-Java:        No
BDInfo:         0.5.8.7 (compatible layout created by DVDFab 11.0.1.0)

PLAYLIST REPORT:

Name:                   00001.MPLS  
Length:                 3:01:09.291 (h:m:s.ms)
Size:                   48,253,802,496 bytes
Total Bitrate:          35.52 Mbps

VIDEO:

Codec                   Bitrate             Desc‍ription     
-----                   -------             -----------     
MPEG-4 AVC Video        20996 kbps          1080i / 29.970 fps / 16:9 / High Profile 4.1 / 

AUDIO:

Codec                           Language        Bitrate         Desc‍ription     
-----                           --------        -------         -----------     
LPCM Audio                      Chinese         6912 kbps       5.1 / 48 kHz / 6912 kbps / 24-bit
DTS-HD Master Audio             Chinese         4777 kbps       5.1 / 48 kHz / 4777 kbps / 24-bit (DTS Core: 5.1 / 48 kHz / 768 kbps / 24-bit)
Dolby Digital Audio             Chinese         640 kbps        5.1 / 48 kHz / 640 kbps
Dolby Digital Audio             Chinese         192 kbps        2.0 / 48 kHz / 192 kbps

SUBTITLES:

Codec                           Language        Bitrate         Desc‍ription     
-----                           --------        -------         -----------     
Presentation Graphics           English         16.137 kbps                     
Presentation Graphics           Chinese         18.551 kbps                     
Presentation Graphics           Chinese         18.933 kbps                     

FILES:

Name            Time In         Length          Size            Total Bitrate   
----            -------         ------          ----            -------------   
00002.M2TS      0:00:00.000     1:02:19.435     16,577,058,816  35,464 kbps     
00003.M2TS      1:02:19.435     0:56:17.741     15,032,156,160  35,602 kbps     
00004.M2TS      1:58:37.176     1:02:32.115     16,644,587,520  35,488 kbps  

image

image

image

image

image

Download:

Vivian.Chow.25.part01.rar
Vivian.Chow.25.part02.rar
Vivian.Chow.25.part03.rar
Vivian.Chow.25.part04.rar
Vivian.Chow.25.part05.rar
Vivian.Chow.25.part06.rar
Vivian.Chow.25.part07.rar
Vivian.Chow.25.part08.rar
Vivian.Chow.25.part09.rar
Vivian.Chow.25.part10.rar
Vivian.Chow.25.part11.rar
Vivian.Chow.25.part12.rar
Vivian.Chow.25.part13.rar
Vivian.Chow.25.part14.rar
Vivian.Chow.25.part15.rar
Vivian.Chow.25.part16.rar
Vivian.Chow.25.part17.rar
Vivian.Chow.25.part18.rar
Vivian.Chow.25.part19.rar
Vivian.Chow.25.part20.rar
Vivian.Chow.25.part21.rar
Vivian.Chow.25.part22.rar
Vivian.Chow.25.part23.rar
Vivian.Chow.25.part24.rar
Vivian.Chow.25.part25.rar
Vivian.Chow.25.part26.rar
Vivian.Chow.25.part27.rar
Vivian.Chow.25.part28.rar
Vivian.Chow.25.part29.rar
Vivian.Chow.25.part30.rar
Vivian.Chow.25.part31.rar

Winrar Recovery Volumes
Vivian.Chow.25.part01.rev
Vivian.Chow.25.part02.rev
Vivian.Chow.25.part03.rev